+ ShareSpark.net
|- Recent Posts

Pantry 600 Back

Recent Posts

Pages: 1 2 3 4 ... 10
1
what is the difference in superduper cut and normal movie?
2
Deadpool 2 (2018) Super Duper Cut 1080p BluRay 10Bit HEVC H265 Dual Audio [Hindi - English] DD5.1 - Msubs ~ Ranvijay - 5.30 GB





Quote
Format                                   : Matroska
Format version                           : Version 4 / Version 2
File size                                : 5.31 GiB
Duration                                 : 2 h 13 min
Overall bit rate                         : 5 668 kb/s
Movie name                               : Deadpool 2 (2018) Super Duper Cut 1080p BluRay 10Bit HEVC H265 Dual Audio [Hindi - English] DD5.1 - Msubs ~ Ranvijay

Video
ID                                       : 1
Format                                   : HEVC
Format/Info                              : High Efficiency Video Coding
Format profile                           : Main [email protected]@Main
Codec ID                                 : V_MPEGH/ISO/HEVC
Duration                                 : 2 h 13 min
Bit rate                                 : 4 748 kb/s
Width                                    : 1 920 pixels
Height                                   : 804 pixels
Display aspect ratio                     : 2.40:1
Frame rate mode                          : Constant
Frame rate                               : 23.976 (24000/1001) FPS
Color space                              : YUV
Chroma subsampling                       : 4:2:0
Bit depth                                : 10 bits
Bits/(Pixel*Frame)                       : 0.128
Stream size                              : 4.44 GiB (84%)
Title                                    : ~Ranvijay~

Audio #1
ID                                       : 2
Format                                   : AC-3
Format/Info                              : Audio Coding 3
Codec ID                                 : A_AC3
Duration                                 : 2 h 13 min
Bit rate mode                            : Constant
Bit rate                                 : 448 kb/s
Channel(s)                               : 6 channels
Channel positions                        : Front: L C R, Side: L R, LFE
Sampling rate                            : 48.0 kHz
Frame rate                               : 31.250 FPS (1536 SPF)
Bit depth                                : 16 bits
Compression mode                         : Lossy
Stream size                              : 429 MiB (8%)
Title                                    : ~Ranvijay~
Language                                 : Hindi
Service kind                             : Complete Main
Default                                  : Yes
Forced                                   : Yes

Audio #2
ID                                       : 3
Format                                   : AC-3
Format/Info                              : Audio Coding 3
Codec ID                                 : A_AC3
Duration                                 : 2 h 13 min
Bit rate mode                            : Constant
Bit rate                                 : 448 kb/s
Channel(s)                               : 6 channels
Channel positions                        : Front: L C R, Side: L R, LFE
Sampling rate                            : 48.0 kHz
Frame rate                               : 31.250 FPS (1536 SPF)
Bit depth                                : 16 bits
Compression mode                         : Lossy
Stream size                              : 429 MiB (8%)
Title                                    : ~Ranvijay~
Language                                 : English
Service kind                             : Complete Main
Default                                  : No
Forced                                   : No

Text #1
ID                                       : 4
Format                                   : PGS
Muxing mode                              : zlib
Codec ID                                 : S_HDMV/PGS
Codec ID/Info                            : Picture based subtitle format used on BDs/HD-DVDs
Duration                                 : 52 min 55 s
Bit rate                                 : 117 b/s
Count of elements                        : 8
Stream size                              : 45.5 KiB (0%)
Title                                    : ~Ranvijay~
Language                                 : English
Default                                  : No
Forced                                   : No

Text #2
ID                                       : 5
Format                                   : PGS
Muxing mode                              : zlib
Codec ID                                 : S_HDMV/PGS
Codec ID/Info                            : Picture based subtitle format used on BDs/HD-DVDs
Duration                                 : 2 h 11 min
Bit rate                                 : 39.4 kb/s
Count of elements                        : 3752
Stream size                              : 37.1 MiB (1%)
Title                                    : ~Ranvijay~
Language                                 : English
Default                                  : No
Forced                                   : No

Text #3
ID                                       : 6
Format                                   : PGS
Muxing mode                              : zlib
Codec ID                                 : S_HDMV/PGS
Codec ID/Info                            : Picture based subtitle format used on BDs/HD-DVDs
Duration                                 : 2 h 13 min
Bit rate                                 : 31.3 kb/s
Count of elements                        : 3868
Stream size                              : 29.8 MiB (1%)
Title                                    : ~Ranvijay~
Language                                 : Hindi
Default                                  : Yes
Forced                                   : Yes

Menu
00:00:00.000                             : en:Chapter 01
00:02:31.693                             : en:Chapter 02
00:07:55.516                             : en:Chapter 03
00:10:46.228                             : en:Chapter 04
00:14:21.193                             : en:Chapter 05
00:17:42.978                             : en:Chapter 06
00:19:10.691                             : en:Chapter 07
00:24:14.369                             : en:Chapter 08
00:27:11.630                             : en:Chapter 09
00:37:17.360                             : en:Chapter 10
00:42:11.820                             : en:Chapter 11
00:44:40.427                             : en:Chapter 12
00:49:30.926                             : en:Chapter 13
00:52:20.470                             : en:Chapter 14
00:56:47.612                             : en:Chapter 15
01:01:00.281                             : en:Chapter 16
01:04:47.258                             : en:Chapter 17
01:07:22.997                             : en:Chapter 18
01:09:45.097                             : en:Chapter 19
01:11:46.010                             : en:Chapter 20
01:15:21.016                             : en:Chapter 21
01:19:19.212                             : en:Chapter 22
01:21:00.188                             : en:Chapter 23
01:24:50.001                             : en:Chapter 24
01:29:10.845                             : en:Chapter 25
01:32:30.419                             : en:Chapter 26
01:36:11.390                             : en:Chapter 27
01:38:18.851                             : en:Chapter 28
01:42:06.328                             : en:Chapter 29
01:44:18.710                             : en:Chapter 30
01:46:03.774                             : en:Chapter 31
01:48:06.730                             : en:Chapter 32
01:51:31.976                             : en:Chapter 33
01:55:05.398                             : en:Chapter 34
01:58:16.047                             : en:Chapter 35
02:02:04.317                             : en:Chapter 36














:download:

Quote


File Leeched & Uploaded From




Don't walk as you are king, walk as you don't care who the king is....!!
Never argue with an idiot. They drag you down to their level and then beat you with experience?
3
धन्यवाद मित्र
4
धन्यवाद मित्र
5
Can you please upload it in 3d format? thanks.
6
i checked quality is superb.
7






Deadpool 2 (2018) Super Duper Cut 1080p BluRay x264 Dual Audio [Hindi DD5.1 - English DD5.1] - Esub ~ Ranvijay

Thanks To Hammer For Hindi Audio

Buy RDP Online




Quote
Format                                   : Matroska
Format version                           : Version 4 / Version 2
File size                                : 5.79 GiB
Duration                                 : 2 h 13 min
Overall bit rate mode                    : Variable
Overall bit rate                         : 6 190 kb/s
Movie name                               : Deadpool 2 (2018) Super Duper Cut 1080p BluRay x264 Dual Audio [Hindi DD5.1 - English DD5.1] - Esub ~ Ranvijay

Video
ID                                       : 1
Format                                   : AVC
Format/Info                              : Advanced Video Codec
Duration                                 : 2 h 13 min
Bit rate mode                            : Variable
Bit rate                                 : 5 270 kb/s
Maximum bit rate                         : 50.0 Mb/s
Width                                    : 1 920 pixels
Height                                   : 800 pixels
Display aspect ratio                     : 2.40:1
Frame rate mode                          : Constant
Frame rate                               : 23.976 (24000/1001) FPS
Color space                              : YUV
Chroma subsampling                       : 4:2:0
Bit depth                                : 8 bits
Scan type                                : Progressive
Bits/(Pixel*Frame)                       : 0.143
Stream size                              : 4.93 GiB (85%)
Title                                    : ~Ranvijay~
Default                                  : Yes
Forced                                   : No

Audio #1
ID                                       : 2
Format                                   : AC-3
Format/Info                              : Audio Coding 3
Codec ID                                 : A_AC3
Duration                                 : 2 h 13 min
Bit rate mode                            : Constant
Bit rate                                 : 448 kb/s
Channel(s)                               : 6 channels
Channel positions                        : Front: L C R, Side: L R, LFE
Sampling rate                            : 48.0 kHz
Frame rate                               : 31.250 FPS (1536 SPF)
Bit depth                                : 16 bits
Compression mode                         : Lossy
Stream size                              : 429 MiB (7%)
Title                                    : ~Ranvijay~
Language                                 : Hindi
Service kind                             : Complete Main
Default                                  : Yes
Forced                                   : Yes

Audio #2
ID                                       : 3
Format                                   : AC-3
Format/Info                              : Audio Coding 3
Codec ID                                 : A_AC3
Duration                                 : 2 h 13 min
Bit rate mode                            : Constant
Bit rate                                 : 448 kb/s
Channel(s)                               : 6 channels
Channel positions                        : Front: L C R, Side: L R, LFE
Sampling rate                            : 48.0 kHz
Frame rate                               : 31.250 FPS (1536 SPF)
Bit depth                                : 16 bits
Compression mode                         : Lossy
Stream size                              : 429 MiB (7%)
Title                                    : ~Ranvijay~
Language                                 : English
Service kind                             : Complete Main
Default                                  : No
Forced                                   : No

Text #1
ID                                       : 4
Format                                   : PGS
Muxing mode                              : zlib
Codec ID                                 : S_HDMV/PGS
Codec ID/Info                            : Picture based subtitle format used on BDs/HD-DVDs
Duration                                 : 52 min 55 s
Bit rate                                 : 117 b/s
Count of elements                        : 8
Stream size                              : 45.5 KiB (0%)
Title                                    : ~Ranvijay~
Language                                 : English
Default                                  : No
Forced                                   : No

Text #2
ID                                       : 5
Format                                   : PGS
Muxing mode                              : zlib
Codec ID                                 : S_HDMV/PGS
Codec ID/Info                            : Picture based subtitle format used on BDs/HD-DVDs
Duration                                 : 2 h 11 min
Bit rate                                 : 39.4 kb/s
Count of elements                        : 3752
Stream size                              : 37.1 MiB (1%)
Title                                    : ~Ranvijay~
Language                                 : English
Default                                  : No
Forced                                   : No

Text #3
ID                                       : 6
Format                                   : PGS
Muxing mode                              : zlib
Codec ID                                 : S_HDMV/PGS
Codec ID/Info                            : Picture based subtitle format used on BDs/HD-DVDs
Duration                                 : 2 h 13 min
Bit rate                                 : 31.3 kb/s
Count of elements                        : 3868
Stream size                              : 29.8 MiB (1%)
Title                                    : ~Ranvijay~
Language                                 : Hindi
Default                                  : Yes
Forced                                   : No













:download:

Quote


File Leeched & Uploaded From




Don't walk as you are king, walk as you don't care who the king is....!!
Never argue with an idiot. They drag you down to their level and then beat you with experience?
8
[lo bro injoy]http://mega.nz/#!MDIViKCB!9T1y3F9Z8id8NBVs-E-8PZzyxV2O76lkTO8E1er6RQs
9
ver good bro
10
PC Games (Direct Links) / The Witness (2016) R.G. Mechanics
« Last post by adteam on August 18, 2018, 09:40:17 PM »

The Witness (2016) PC | RePack by R.G. Mechanics  |Size:3.00 GB   
Release year : 2016
Genre : Adventure , Puzzle , 3D , 1st Person
Developer : Thekla, Inc.
Publisher : Thekla, Inc.
Publication Type : RePack
Language : RUS | ENG | MULTi14
Voice set Language : ENG
Tablet : the MEX


Description:
You wake up alone on an island full of complex and amazing mysteries. You have forgotten who you are and how you got on the island, so there is only one thing: to study the terrain - suddenly there is something here that will help you regain your memory and find your way home. The Witness is a game for one user, a diverse open world with over five hundred puzzles. The game proceeds from the fact that an intelligent person interacts with it, the time of which is valuable. No mystery serves merely to complicate matters; each carries a thought. The whole game is full of meaning.

Features Repack
Do not cut / recoded
The version of the game is the last on 07.07.18

System Requirements:
✔ Operating system : the Windows 7
✔ Processor : 1.8 GHz
✔ RAM : 4 GB RAM
✔ Video card : Intel HD 4000 series (DirectX: 10)
✔ Sound Card : Sound device compatible with DirectX ® 9.0
✔ Free space on hard disk : 6.4 GB

ScreenShots









Code: [Select]
http://rapidgator.net/file/b67e3fbdd918351bf354124f4dfe7ca0/RGM.TheWitness.part1.rar.html
http://rapidgator.net/file/a98a9e76f4861b5355c76a21fb796c0a/RGM.TheWitness.part2.rar.html
http://rapidgator.net/file/4061c36ba897e00d07efd2fee18499e1/RGM.TheWitness.part3.rar.html
http://rapidgator.net/file/214d03014f59c2c3d4fc5b05d1696a8a/RGM.TheWitness.part4.rar.html
Code: [Select]
http://ul.to/pyta88wo
http://ul.to/55g146h2
http://ul.to/znq3souh
http://ul.to/nijhoc0h
Code: [Select]
http://uptobox.com/tcgbtju8jyx3
http://uptobox.com/pq1moxu1ubiv
http://uptobox.com/304d90dxm1y3
http://uptobox.com/pr6c6w9she2e

Pages: 1 2 3 4 ... 10


Back to top