+ ShareSpark.net »  :::: Dubbed Zone (Dubbed English in Hindi) » English Movies Dubbed in Hindi » High Resolution Movies
|- Skyscaper 2018 1080p HC HDRip x264 Dual Audio [Hindi - English] [MW]

Add 1000 Get 100 Back

Skyscaper 2018 1080p HC HDRip x264 Dual Audio [Hindi - English] [MW]

0 Members and 1 Guest are viewing this topic.

August 11, 2018, 12:56:30 PM
  • Elite Forces
  • ****
  • Topic Author
  • Thank You: 1020
  • Reputation: 476
  • Activity:
    100%
  • Country: pk
  • Posts: 1195
  • Topics: 580
  • Join Date: Mar 2015
  • ShareSpark Member
Skyscaper 2018 1080p HC HDRip x264 Dual Audio [Hindi - English] [MW]








General
Format : Matroska
Format version : Version 4 / Version 2
File size : 2.06 GiB
Duration : 1 h 42 min
Overall bit rate : 2 881 kb/s

Video
ID : 1
Format : AVC
Format/Info : Advanced Video Codec
Format profile : [email protected]
Format settings : CABAC / 4 Ref Frames
Format settings, CABAC : Yes
Format settings, RefFrames : 4 frames
Codec ID : V_MPEG4/ISO/AVC
Duration : 1 h 42 min
Bit rate : 2 650 kb/s
Width : 1 920 pixels
Height : 800 pixels
Display aspect ratio : 2.40:1
Frame rate mode : Constant
Frame rate : 30.000 FPS
Color space : YUV
Chroma subsampling : 4:2:0
Bit depth : 8 bits
Scan type : Progressive
Bits/(Pixel*Frame) : 0.058
Stream size : 1.88 GiB (91%)
Writing library : x264 core 155 r2901 7d0ff22
Default : Yes
Forced : No

Audio #1
ID : 2
Format : AAC
Format/Info : Advanced Audio Codec
Format profile : LC
Codec ID : A_AAC-2
Duration : 1 h 42 min
Bit rate : 128 kb/s
Channel(s) : 2 channels
Channel positions : Front: L R
Sampling rate : 48.0 kHz
Frame rate : 46.875 FPS (1024 SPF)
Compression mode : Lossy
Stream size : 93.8 MiB (4%)
Language : Hindi
Default : Yes
Forced : No

Audio #2
ID : 3
Format : AAC
Format/Info : Advanced Audio Codec
Format profile : LC
Codec ID : A_AAC-2
Duration : 1 h 42 min
Bit rate : 128 kb/s
Channel(s) : 2 channels
Channel positions : Front: L R
Sampling rate : 48.0 kHz
Frame rate : 46.875 FPS (1024 SPF)
Compression mode : Lossy
Stream size : 93.8 MiB (4%)
Language : English
Default : No
Forced : No




 :ss:













 :download:























Share this topic on FacebookShare this topic on GoogleShare this topic on MySpaceShare this topic on TwitterShare this topic on Yahoo



Thanks given by:


August 11, 2018, 03:00:28 PM
Reply #1
  • Conqueror
  • Royal Member
  • *****
  • Thank You: 459
  • Reputation: 175
  • Activity:
    28.8%
  • Country: in
  • Posts: 1046
  • Topics: 458
  • Join Date: Oct 2015
  • Hit ThanX Button 🔳 N Repute Button 🔳
Hit Thnx Button 🔳 N + Repute Button 🔳 Always Appreciate UploadeR 🤗 GiVe Respect GeT Respect :yu:

Tags:
 

Related Topics




Back to top